The Walking Dead S02E13 (Final)

Temporada: 2
Capítulos: 13
Calidad: HDiTunes
Idioma: Inglés
Subtítulos Hardsubs: Castellano

The Walking Dead cuenta la historia de las secuelas de un apocalipsis zombi y sigue a un pequeño grupo de supervivientes que viajan a través de Estados Unidos en busca de un nuevo hogar lejos de las hordas de zombis. Después de despertar de un coma en un hospital abandonado, el oficial de policía Rick Grimes se da cuenta de que el mundo que conocía no existe, devastado por una epidemia zombi de proporciones apocalípticas. En los alrededores, en las afueras de Atlanta, un pequeño campamento lucha por sobrevivir mientras que los no-muertos los acechan a cada momento. El grupo es guiado por Rick Grimes, quien era un oficial de policía en el viejo mundo. Mientras su situación se vuelve más y más sombría, la desesperación del grupo por sobrevivir los obliga a hacer casi cualquier cosa para mantenerse con vida.

MediaInfo:


Video
Format : MPEG-4 Visual
Format profile : Advanced Simple@L5
Format settings, BVOP : 2
Format settings, QPel : No
Format settings, GMC : No warppoints
Format settings, Matrix : Default (H.263)
Codec ID : XVID
Codec ID/Hint : XviD
Duration : 42mn 57s
Bit rate : 976 Kbps
Width : 640 pixels
Height : 360 pixels
Display aspect ratio : 16:9
Frame rate : 23.976 fps
Color space : YUV
Chroma subsampling : 4:2:0
Bit depth : 8 bits
Scan type : Progressive
Compression mode : Lossy
Bits/(Pixel*Frame) : 0.177
Stream size : 300 MiB (89%)
Writing library : XviD 64
Audio
ID : 1
Format : MPEG Audio
Format version : Version 1
Format profile : Layer 3
Codec ID : 55
Codec ID/Hint : MP3
Duration : 42mn 57s
Bit rate mode : Constant
Bit rate : 112 Kbps
Channel(s) : 2 channels
Sampling rate : 48.0 KHz
Compression mode : Lossy
Stream size : 34.4 MiB (10%)
Alignment : Split accross interleaves
Interleave, duration : 24 ms (0.58 video frame)

Descargar por Mediafire:


Descargar por gestor: 


http://www.mediafire.com/?vdln6wk3853fi1w
http://www.mediafire.com/?jd7h5iq77tq60s3
http://www.mediafire.com/?b2scd5wi1dbkcc9
http://www.mediafire.com/?btdtp91fbbubxfc


No hay comentarios:

Publicar un comentario en la entrada